Marvels.Helstrom.S01E02.Viaticum.WEBMux.ITA.ENG.DD5.1.x264-BlackB...

  • Category TV
  • Type SD
  • Language English
  • Total size 549.0 MB
  • Uploaded By eXpOrTeRICV
  • Downloads 237
  • Last checked 43 minutes ago
  • Date uploaded 3 days ago
  • Seeders 12
  • Leechers 1

Infohash : EC5B4AD6688C6D7B2162D3F03B2123E723940D83



DATI - TRAMA

Paese Stati Uniti d'America
Anno 2020
Formato serie TV
Genere drammatico, fantasy, orrore, supereroi
Stagioni 1
Episodi 10
Durata 44-55 min (episodio)
Lingua originale inglese

Daimon e Ana Helstrom, i figli di un potente serial killer, danno la caccia al peggio dell'umanità.

IMMAGINI





REPORT

General
Unique ID : 195357401431350269953752155528862582641 (0x92F877888E600AB1630ECAA9F1174771)
Complete name : C:\Users\Administrator\Videos\Marvels Helstrom S01\Marvels.Helstrom.S01E01.Mothers.Little.Helpers.WEBMux.ITA.ENG.DD5.1.x264-BlackBit.mkv
Format : Matroska
Format version : Version 4
File size : 642 MiB
Duration : 55 min 49 s
Overall bit rate : 1 608 kb/s
Encoded date : UTC 2021-02-23 15:34:48
Writing application : mkvmerge v52.0.0 ('Secret For The Mad') 64-bit
Writing library : libebml v1.4.1 + libmatroska v1.6.2

Video
ID : 1
Format : AVC
Format/Info : Advanced Video Codec
Format profile : [email protected]
Format settings : CABAC / 5 Ref Frames
Format settings, CABAC : Yes
Format settings, Reference : 5 frames
Codec ID : V_MPEG4/ISO/AVC
Duration : 55 min 49 s
Bit rate : 1 100 kb/s
Width : 720 pixels
Height : 400 pixels
Display aspect ratio : 16:9
Frame rate mode : Constant
Frame rate : 23.976 (24000/1001) FPS
Color space : YUV
Chroma subsampling : 4:2:0
Bit depth : 8 bits
Scan type : Progressive
Bits/(Pixel*Frame) : 0.159
Stream size : 437 MiB (68%)
Writing library : x264 core 148 r2795M aaa9aa8
Encoding settings : cabac=1 / ref=5 / deblock=1:-1:-1 / analyse=0x3:0x113 / me=umh / subme=9 / psy=1 / psy_rd=1.00:0.15 / mixed_ref=1 / me_range=16 / chroma_me=1 / trellis=2 / 8x8dct=1 / cqm=0 / deadzone=21,11 / fast_pskip=1 / chroma_qp_offset=-3 / threads=24 / lookahead_threads=2 / sliced_threads=0 / nr=0 / decimate=1 / interlaced=0 / bluray_compat=0 / constrained_intra=0 / bframes=3 / b_pyramid=2 / b_adapt=2 / b_bias=0 / direct=3 / weightb=1 / open_gop=0 / weightp=2 / keyint=250 / keyint_min=23 / scenecut=40 / intra_refresh=0 / rc_lookahead=50 / rc=abr / mbtree=1 / bitrate=1100 / ratetol=1.0 / qcomp=0.60 / qpmin=0 / qpmax=69 / qpstep=4 / ip_ratio=1.40 / aq=1:1.00
Default : Yes
Forced : Yes

Audio #1
ID : 2
Format : AC-3
Format/Info : Audio Coding 3
Commercial name : Dolby Digital
Codec ID : A_AC3
Duration : 55 min 49 s
Bit rate mode : Constant
Bit rate : 256 kb/s
Channel(s) : 6 channels
Channel layout : L R C LFE Ls Rs
Sampling rate : 48.0 kHz
Frame rate : 31.250 FPS (1536 SPF)
Compression mode : Lossy
Delay relative to video : -43 ms
Stream size : 102 MiB (16%)
Language : Italian
Service kind : Complete Main
Default : Yes
Forced : Yes

Audio #2
ID : 3
Format : AAC LC
Format/Info : Advanced Audio Codec Low Complexity
Codec ID : A_AAC-2
Duration : 55 min 49 s
Bit rate : 256 kb/s
Channel(s) : 2 channels
Channel layout : L R
Sampling rate : 48.0 kHz
Frame rate : 46.875 FPS (1024 SPF)
Compression mode : Lossy
Delay relative to video : -43 ms
Stream size : 102 MiB (16%)
Language : English
Default : No
Forced : No

Text #1
ID : 4
Format : UTF-8
Codec ID : S_TEXT/UTF8
Codec ID/Info : UTF-8 Plain Text
Duration : 40 min 59 s
Bit rate : 0 b/s
Count of elements : 5
Stream size : 156 Bytes (0%)
Language : Italian
Default : Yes
Forced : Yes

Text #2
ID : 5
Format : UTF-8
Codec ID : S_TEXT/UTF8
Codec ID/Info : UTF-8 Plain Text
Duration : 52 min 49 s
Bit rate : 44 b/s
Count of elements : 569
Stream size : 17.3 KiB (0%)
Language : Italian
Default : No
Forced : No

Text #3
ID : 6
Format : UTF-8
Codec ID : S_TEXT/UTF8
Codec ID/Info : UTF-8 Plain Text
Duration : 55 min 36 s
Bit rate : 61 b/s
Count of elements : 810
Stream size : 24.9 KiB (0%)
Title : SDH
Language : English
Default : No
Forced : No

Menu
00:17:30.000 : en:Chapter 01
00:27:42.005 : en:Chapter 02
00:37:07.008 : en:Chapter 03
00:50:02.007 : en:Chapter 04


GOOD DOWNLOAD

Files:

  • Marvels.Helstrom.S01E02.Viaticum.WEBMux.ITA.ENG.DD5.1.x264-BlackBit.mkv (549.0 MB)

There are currently no comments. Feel free to leave one :)

Code:

  • udp://blokas.io:6969/announce
  • udp://tracker.torrent.eu.org:451/announce
  • http://tracker.gbitt.info:80/announce
  • http://tracker2.dler.org:80/announce
  • http://tracker.bt4g.com:2095/announce
  • udp://tracker.coppersurfer.tk:6969/announce
  • udp://tracker.opentrackr.org:1337/announce
  • udp://tracker.leechers-paradise.org:6969/announce
  • udp://9.rarbg.me:2790/announce
  • udp://9.rarbg.to:2730/announce
  • udp://9.rarbg.com:2710/announce
  • http://t.nyaatracker.com:80/announce