Marvels.Helstrom.S01E02.Viaticum.1080p.WEBMux.ITA.ENG.DD5.1.x264-...

  • Category TV
  • Type HD
  • Language English
  • Total size 1.0 GB
  • Uploaded By eXpOrTeRICV
  • Downloads 107
  • Last checked 18 minutes ago
  • Date uploaded 6 days ago
  • Seeders 5
  • Leechers 2

Infohash : 408203E16261D02877912FE46EF53948F49173A8



DATI - TRAMA

Paese Stati Uniti d'America
Anno 2020
Formato serie TV
Genere drammatico, fantasy, orrore, supereroi
Stagioni 1
Episodi 10
Durata 44-55 min (episodio)
Lingua originale inglese

Daimon e Ana Helstrom, i figli di un potente serial killer, danno la caccia al peggio dell'umanità.

IMMAGINI





REPORT

General
Unique ID : 101791644615087630299274606710102424003 (0x4C945B8EA3D04979512EE7B17F23F9C3)
Complete name : C:\Users\Administrator\Videos\Marvels Helstrom S01\Marvels.Helstrom.S01E01.Mothers.Little.Helpers.1080p.WEBMux.ITA.ENG.DD5.1.x264-BlackBit.mkv
Format : Matroska
Format version : Version 4
File size : 1.08 GiB
Duration : 55 min 49 s
Overall bit rate : 2 771 kb/s
Encoded date : UTC 2021-02-23 15:23:02
Writing application : mkvmerge v52.0.0 ('Secret For The Mad') 64-bit
Writing library : libebml v1.4.1 + libmatroska v1.6.2

Video
ID : 1
Format : AVC
Format/Info : Advanced Video Codec
Format profile : [email protected]
Format settings : CABAC / 4 Ref Frames
Format settings, CABAC : Yes
Format settings, Reference : 4 frames
Codec ID : V_MPEG4/ISO/AVC
Duration : 55 min 49 s
Bit rate : 2 257 kb/s
Width : 1 920 pixels
Height : 1 080 pixels
Display aspect ratio : 16:9
Frame rate mode : Constant
Frame rate : 23.976 (24000/1001) FPS
Color space : YUV
Chroma subsampling : 4:2:0
Bit depth : 8 bits
Scan type : Progressive
Bits/(Pixel*Frame) : 0.045
Stream size : 901 MiB (81%)
Default : Yes
Forced : Yes

Audio #1
ID : 2
Format : AC-3
Format/Info : Audio Coding 3
Commercial name : Dolby Digital
Codec ID : A_AC3
Duration : 55 min 49 s
Bit rate mode : Constant
Bit rate : 256 kb/s
Channel(s) : 6 channels
Channel layout : L R C LFE Ls Rs
Sampling rate : 48.0 kHz
Frame rate : 31.250 FPS (1536 SPF)
Compression mode : Lossy
Stream size : 102 MiB (9%)
Language : Italian
Service kind : Complete Main
Default : Yes
Forced : Yes

Audio #2
ID : 3
Format : E-AC-3
Format/Info : Enhanced AC-3
Commercial name : Dolby Digital Plus
Codec ID : A_EAC3
Duration : 55 min 49 s
Bit rate mode : Constant
Bit rate : 256 kb/s
Channel(s) : 6 channels
Channel layout : L R C LFE Ls Rs
Sampling rate : 48.0 kHz
Frame rate : 31.250 FPS (1536 SPF)
Compression mode : Lossy
Stream size : 102 MiB (9%)
Language : English
Service kind : Complete Main
Default : No
Forced : No

Text #1
ID : 4
Format : UTF-8
Codec ID : S_TEXT/UTF8
Codec ID/Info : UTF-8 Plain Text
Duration : 40 min 59 s
Bit rate : 0 b/s
Count of elements : 5
Stream size : 156 Bytes (0%)
Language : Italian
Default : Yes
Forced : Yes

Text #2
ID : 5
Format : UTF-8
Codec ID : S_TEXT/UTF8
Codec ID/Info : UTF-8 Plain Text
Duration : 52 min 49 s
Bit rate : 44 b/s
Count of elements : 569
Stream size : 17.3 KiB (0%)
Language : Italian
Default : No
Forced : No

Text #3
ID : 6
Format : UTF-8
Codec ID : S_TEXT/UTF8
Codec ID/Info : UTF-8 Plain Text
Duration : 55 min 36 s
Bit rate : 61 b/s
Count of elements : 810
Stream size : 24.9 KiB (0%)
Title : SDH
Language : English
Default : No
Forced : No

Menu
00:17:30.000 : en:Chapter 01
00:27:42.005 : en:Chapter 02
00:37:07.008 : en:Chapter 03
00:50:02.007 : en:Chapter 04


GOOD DOWNLOAD

Files:

  • Marvels.Helstrom.S01E02.Viaticum.1080p.WEBMux.ITA.ENG.DD5.1.x264-BlackBit.mkv (1.0 GB)

There are currently no comments. Feel free to leave one :)

Code:

  • udp://blokas.io:6969/announce
  • udp://tracker.torrent.eu.org:451/announce
  • http://tracker.gbitt.info:80/announce
  • http://tracker2.dler.org:80/announce
  • http://tracker.bt4g.com:2095/announce
  • udp://tracker.coppersurfer.tk:6969/announce
  • udp://tracker.opentrackr.org:1337/announce
  • udp://tracker.leechers-paradise.org:6969/announce
  • udp://9.rarbg.me:2790/announce
  • udp://9.rarbg.to:2730/announce
  • udp://9.rarbg.com:2710/announce
  • http://t.nyaatracker.com:80/announce