Queen.Sugar.S05E01.720p.OWN.WEBRip.AAC2.0.H264-BTN

  • Category TV
  • Type HD
  • Language English
  • Total size 1.2 GB
  • Uploaded By prudence25
  • Downloads 48
  • Last checked 25 minutes ago
  • Date uploaded 1 week ago
  • Seeders 32
  • Leechers 4

Infohash : EA8C6C195C66D38E62E1100FC9FB3D13404B0459

Video
ID : 1
Format : AVC
Format/Info : Advanced Video Codec
Format profile : [email protected]
Format settings : 2 Ref Frames
Format settings, CABAC : No
Format settings, Reference frames : 2 frames
Codec ID : V_MPEG4/ISO/AVC
Duration : 42 min 23 s
Bit rate mode : Variable
Bit rate : 4 011 kb/s
Maximum bit rate : 8 000 kb/s
Width : 1 280 pixels
Height : 720 pixels
Display aspect ratio : 16:9
Frame rate mode : Constant
Frame rate : 30.000 FPS
Color space : YUV
Chroma subsampling : 4:2:0
Bit depth : 8 bits
Scan type : Progressive
Bits/(Pixel*Frame) : 0.145
Stream size : 1.19 GiB (98%)
Default : Yes
Forced : No

Audio
ID : 2
Format : AAC LC SBR
Format/Info : Advanced Audio Codec Low Complexity with Spectral Band Replication
Commercial name : HE-AAC
Format settings : Implicit
Codec ID : A_AAC-2
Duration : 42 min 23 s
Bit rate : 96.0 kb/s
Channel(s) : 2 channels
Channel layout : L R
Sampling rate : 44.1 kHz
Frame rate : 21.533 FPS (2048 SPF)
Compression mode : Lossy
Delay relative to video : -93 ms
Stream size : 28.8 MiB (2%)
Language : English
Default : Yes
Forced : No

Text
ID : 3
Format : UTF-8
Codec ID : S_TEXT/UTF8
Codec ID/Info : UTF-8 Plain Text
Duration : 41 min 59 s
Bit rate : 76 b/s
Count of elements : 829
Stream size : 23.4 KiB (0%)
Language : English
Default : No
Forced : No

Files:

Queen.Sugar.S05E01.720p.OWN.WEBRip.AAC2.0.H264-BTN[rarbg]
  • Queen.Sugar.S05E01.720p.OWN.WEB-DL.AAC2.0.H.264-BTN.mkv (1.2 GB)
  • RARBG.txt (0.0 KB)
  • RARBG_DO_NOT_MIRROR.exe (0.1 KB)

There are currently no comments. Feel free to leave one :)

Code:

  • http://tracker.trackerfix.com:80/announce
  • udp://9.rarbg.me:2770/announce
  • udp://9.rarbg.to:2980/announce