RED (2021) Telugu NF WEB-DL 1080p AVC DDP 5.1 ESUB www.RipsTracke...

  • Category Movies
  • Type h.264/x264
  • Language Telugu
  • Total size 2.5 GB
  • Uploaded By mrugam2012
  • Downloads 175
  • Last checked 35 minutes ago
  • Date uploaded 6 days ago
  • Seeders 2
  • Leechers 0

Red Dot

DramaThriller

On a hiking trip to rekindle their marriage, a couple find themselves fleeing for their lives in the unforgiving wilderness from an unknown shooter.

Infohash : CAF57E80A29205697ED3360E1B28EC3ECC8C92DF


RED (2021) Telugu NF WEB-DL 1080p AVC DDP 5.1 ESUB




Code:

General

Complete name : RED (2021) Telugu NF WEB-DL 1080p AVC DDP 5.1 ESUB
Format : Matroska
Format version : Version 4
File size : 2.55 GiB
Duration : 2 h 23 min
Overall bit rate mode : Variable
Overall bit rate : 2 549 kb/s
Encoded date : UTC 2021-02-23 05:02:54
Writing application : mkvmerge v53.0.0 ('Fool's Gold') 64-bit
Writing library : libebml v1.4.1 + libmatroska v1.6.2

Video
ID : 1
Format : AVC
Format/Info : Advanced Video Codec
Format profile : [email protected]
Format settings : CABAC / 4 Ref Frames
Format settings, CABAC : Yes
Format settings, Reference : 4 frames
Codec ID : V_MPEG4/ISO/AVC
Duration : 2 h 23 min
Bit rate mode : Variable
Bit rate : 1 907 kb/s
Maximum bit rate : 20.0 Mb/s
Width : 1 920 pixels
Height : 1 080 pixels
Display aspect ratio : 16:9
Frame rate mode : Constant
Frame rate : 24.000 FPS
Color space : YUV
Chroma subsampling : 4:2:0
Bit depth : 8 bits
Scan type : Progressive
Bits/(Pixel*Frame) : 0.038
Stream size : 1.91 GiB (75%)

Default : Yes
Forced : No

Audio
ID : 2
Format : E-AC-3
Format/Info : Enhanced AC-3
Commercial name : Dolby Digital Plus
Codec ID : A_EAC3
Duration : 2 h 23 min
Bit rate mode : Constant
Bit rate : 640 kb/s
Channel(s) : 6 channels
Channel layout : L R C LFE Ls Rs
Sampling rate : 48.0 kHz
Frame rate : 31.250 FPS (1536 SPF)
Compression mode : Lossy
Delay relative to video : -83 ms
Stream size : 656 MiB (25%)
Language : Telugu
Service kind : Complete Main
Default : Yes
Forced : No

Text
ID : 3
Format : UTF-8
Codec ID : S_TEXT/UTF8
Codec ID/Info : UTF-8 Plain Text
Duration : 2 h 19 min
Bit rate : 68 b/s
Count of elements : 1947
Stream size : 70.1 KiB (0%)
Default : Yes
Forced : No
credits dus












[/B]


Files:

RED (2021) Telugu NF WEB-DL 1080p AVC DDP 5.1 ESUB www.RipsTracker.com
  • RED (2021) Telugu NF WEB-DL 1080p AVC DDP 5.1 ESUB www.RipsTracker.com.mkv (2.5 GB)

Comments

Code:

  • udp://tracker.leechers-paradise.org:6969/announce