The Interpreter (2005) 1080p BluRay x264 Dual Audio {Hindi DD 5.1...

  • Category Movies
  • Type Dubs/Dual Audio
  • Language Hindi
  • Total size 5.6 GB
  • Uploaded By HammerHammer
  • Downloads 696
  • Last checked 13 hours ago
  • Date uploaded 6 days ago
  • Seeders 17
  • Leechers 9

The Interpreter

Action

A thriller about an interpreter who has overheard plans of an assassination at United Nations headquarters. An American Secret Service agent is sent to investigate as Silvia Broome, the interpreter, is in danger of being killed by the assassins.

Infohash : 15E482551D7D21A362A146596D328CC7A53D8F75



The Interpreter (2005) 1080p BluRay x264 Dual Audio {Hindi DD 5.1-Eng BD 5.1} MSub By~Hammer~







General
Format                                   : Matroska
Format version                           : Version 4
File size                                : 5.64 GiB
Duration                                 : 2 h 8 min
Overall bit rate                         : 6 293 kb/s
Movie name                               : The Interpreter (2005) 1080p BluRay x264 Dual Audio {Hindi DD 5.1-Eng BD 5.1} MSub By~Hammer~
Bit rate                                 : 5 000 kb/s
Width                                    : 1 920 pixels
Height                                   : 816 pixels
Display aspect ratio                     : 2.35:1
Frame rate mode                          : Constant
Frame rate                               : 23.976 (24000/1001) FPS
Title                                    : ~EncodeR~HammeR~
Language                                 : English
Default                                  : Yes
Forced                                   : Yes

Audio #1
Format                                   : AC-3
Format/Info                              : Audio Coding 3
Commercial name                          : Dolby Digital
Codec ID                                 : A_AC3
Duration                                 : 2 h 8 min
Bit rate mode                            : Constant
Bit rate                                 : 640 kb/s
Channel(s)                               : 6 channels
Channel layout                           : L R C LFE Ls Rs
Sampling rate                            : 48.0 kHz
Frame rate                               : 31.250 FPS (1536 SPF)
Compression mode                         : Lossy
Stream size                              : 587 MiB (10%)
Title                                    : Hindi Org DD 5.1 640 kbps By~Hammer~
Language                                 : Hindi
Default                                  : Yes
Forced                                   : Yes

Audio #2
Format                                   : AC-3
Format/Info                              : Audio Coding 3
Commercial name                          : Dolby Digital
Codec ID                                 : A_AC3
Duration                                 : 2 h 8 min
Bit rate mode                            : Constant
Bit rate                                 : 640 kb/s
Channel(s)                               : 6 channels
Channel layout                           : L R C LFE Ls Rs
Sampling rate                            : 48.0 kHz
Frame rate                               : 31.250 FPS (1536 SPF)
Compression mode                         : Lossy
Stream size                              : 587 MiB (10%)
Title                                    : English BD 5.1 640 kbps By~Hammer~
Language                                 : English
Default                                  : No
Forced                                   : No

Text #1
Format                                   : UTF-8
Codec ID                                 : S_TEXT/UTF8
Codec ID/Info                            : UTF-8 Plain Text
Duration                                 : 2 h 6 min
Bit rate                                 : 134 b/s
Count of elements                        : 1523
Stream size                              : 125 KiB (0%)
Title                                    : Hindi Full SRT
Language                                 : Hindi
Default                                  : Yes
Forced                                   : No

Text #2
Format                                   : PGS
Muxing mode                              : zlib
Codec ID                                 : S_HDMV/PGS
Codec ID/Info                            : Picture based subtitle format used on BDs/HD-DVDs
Duration                                 : 2 h 2 min
Bit rate                                 : 11.1 kb/s
Count of elements                        : 3266
Stream size                              : 9.73 MiB (0%)
Title                                    : English PGS
Language                                 : English
Default                                  : No
Forced                                   : No

Text #3
Format                                   : PGS
Muxing mode                              : zlib
Codec ID                                 : S_HDMV/PGS
Codec ID/Info                            : Picture based subtitle format used on BDs/HD-DVDs
Duration                                 : 1 h 7 min
Bit rate                                 : 208 b/s
Count of elements                        : 46
Stream size                              : 104 KiB (0%)
Title                                    : English PGS
Language                                 : English
Default                                  : No
Forced                                   : No


















Files:

  • The Interpreter (2005) 1080p BluRay x264 Dual Audio {Hindi DD 5.1-Eng BD 5.1} MSub By~Hammer~.mkv (5.6 GB)

Comments

Code:

  • udp://tracker.coppersurfer.tk:6969/announce
  • udp://tracker.leechers-paradise.org:6969/announce
  • udp://open.stealth.si:80/announce
  • udp://exodus.desync.com:6969
  • udp://p4p.arenabg.com:1337/announce
  • udp://explodie.org:6969/announce
  • udp://tracker.opentrackr.org:1337/announce
  • udp://tracker.tiny-vps.com:6969/announce
  • udp://open.demonii.si:1337/announce
  • udp://tracker.iamhansen.xyz:2000/announce
  • udp://tracker.pirateparty.gr:6969/announce
  • udp://ipv4.tracker.harry.lu:80/announce
  • udp://tracker.cyberia.is:6969/announce
  • udp://9.rarbg.to:2710/announce
  • udp://eddie4.nl:6969/announce