The.Muppet.Show.S05.720p.DSNP.WEBRip.AAC2.0.x264-LAZY

  • Category TV
  • Type HD
  • Language English
  • Total size 17.1 GB
  • Uploaded By prudence25
  • Downloads 70
  • Last checked 58 minutes ago
  • Date uploaded 1 week ago
  • Seeders 68
  • Leechers 10

Infohash : 47B9E3AC4052B4CB5AE10538E8DF4E0C65F1668A

https://www.imdb.com/title/tt0074028/



Video
ID : 1
Format : AVC
Format/Info : Advanced Video Codec
Format profile : [email protected]
Format settings : CABAC / 4 Ref Frames
Format settings, CABAC : Yes
Format settings, Reference frames : 4 frames
Codec ID : V_MPEG4/ISO/AVC
Duration : 26 min 37 s
Bit rate mode : Variable
Bit rate : 4 236 kb/s
Maximum bit rate : 6 375 kb/s
Width : 1 280 pixels
Height : 720 pixels
Display aspect ratio : 16:9
Frame rate mode : Constant
Frame rate : 23.976 (24000/1001) FPS
Color space : YUV
Chroma subsampling : 4:2:0
Bit depth : 8 bits
Scan type : Progressive
Bits/(Pixel*Frame) : 0.192
Stream size : 806 MiB (97%)
Writing library : AVC Coding
Default : Yes
Forced : No
Color range : Limited
Color primaries : BT.709
Transfer characteristics : BT.709
Matrix coefficients : BT.709

Audio
ID : 2
Format : AAC LC
Format/Info : Advanced Audio Codec Low Complexity
Codec ID : A_AAC-2
Duration : 26 min 37 s
Bit rate : 125 kb/s
Channel(s) : 2 channels
Channel layout : L R
Sampling rate : 48.0 kHz
Frame rate : 46.875 FPS (1024 SPF)
Compression mode : Lossy
Stream size : 23.9 MiB (3%)
Language : English
Default : Yes
Forced : No

Text #1
ID : 3
Format : UTF-8
Codec ID : S_TEXT/UTF8
Codec ID/Info : UTF-8 Plain Text
Duration : 26 min 24 s
Bit rate : 84 b/s
Count of elements : 477
Stream size : 16.3 KiB (0%)
Language : English
Default : Yes
Forced : No

Text #2
ID : 4
Format : UTF-8
Codec ID : S_TEXT/UTF8
Codec ID/Info : UTF-8 Plain Text
Duration : 26 min 23 s
Bit rate : 42 b/s
Count of elements : 259
Stream size : 8.24 KiB (0%)
Language : Danish
Default : No
Forced : No

Text #3
ID : 5
Format : UTF-8
Codec ID : S_TEXT/UTF8
Codec ID/Info : UTF-8 Plain Text
Duration : 26 min 36 s
Bit rate : 43 b/s
Count of elements : 255
Stream size : 8.54 KiB (0%)
Language : German
Default : No
Forced : No

Text #4
ID : 6
Format : UTF-8
Codec ID : S_TEXT/UTF8
Codec ID/Info : UTF-8 Plain Text
Duration : 26 min 36 s
Bit rate : 43 b/s
Count of elements : 256
Stream size : 8.55 KiB (0%)
Title : Latin American
Language : Spanish
Default : No
Forced : No

Text #5
ID : 7
Format : UTF-8
Codec ID : S_TEXT/UTF8
Codec ID/Info : UTF-8 Plain Text
Duration : 26 min 36 s
Bit rate : 39 b/s
Count of elements : 257
Stream size : 7.71 KiB (0%)
Title : European
Language : Spanish
Default : No
Forced : No

Text #6
ID : 8
Format : UTF-8
Codec ID : S_TEXT/UTF8
Codec ID/Info : UTF-8 Plain Text
Duration : 26 min 23 s
Bit rate : 39 b/s
Count of elements : 259
Stream size : 7.57 KiB (0%)
Language : Finnish
Default : No
Forced : No

Text #7
ID : 9
Format : UTF-8
Codec ID : S_TEXT/UTF8
Codec ID/Info : UTF-8 Plain Text
Duration : 26 min 36 s
Bit rate : 42 b/s
Count of elements : 256
Stream size : 8.34 KiB (0%)
Language : French
Default : No
Forced : No

Text #8
ID : 10
Format : UTF-8
Codec ID : S_TEXT/UTF8
Codec ID/Info : UTF-8 Plain Text
Duration : 26 min 36 s
Bit rate : 43 b/s
Count of elements : 254
Stream size : 8.51 KiB (0%)
Language : Italian
Default : No
Forced : No

Text #9
ID : 11
Format : UTF-8
Codec ID : S_TEXT/UTF8
Codec ID/Info : UTF-8 Plain Text
Duration : 26 min 36 s
Bit rate : 39 b/s
Count of elements : 256
Stream size : 7.70 KiB (0%)
Language : Dutch
Default : No
Forced : No

Text #10
ID : 12
Format : UTF-8
Codec ID : S_TEXT/UTF8
Codec ID/Info : UTF-8 Plain Text
Duration : 26 min 23 s
Bit rate : 43 b/s
Count of elements : 259
Stream size : 8.37 KiB (0%)
Language : Norwegian
Default : No
Forced : No

Text #11
ID : 13
Format : UTF-8
Codec ID : S_TEXT/UTF8
Codec ID/Info : UTF-8 Plain Text
Duration : 26 min 36 s
Bit rate : 40 b/s
Count of elements : 251
Stream size : 7.81 KiB (0%)
Title : European
Language : Portuguese
Default : No
Forced : No

Text #12
ID : 14
Format : UTF-8
Codec ID : S_TEXT/UTF8
Codec ID/Info : UTF-8 Plain Text
Duration : 26 min 23 s
Bit rate : 40 b/s
Count of elements : 260
Stream size : 7.75 KiB (0%)
Language : Swedish
Default : No
Forced : No


Quote:

Notes : Episodes E23, E24 are missing from DSNP.

Files:

The.Muppet.Show.S05.720p.DSNP.WEBRip.AAC2.0.x264-LAZY[rartv]
  • RARBG.txt (0.0 KB)
  • The.Muppet.Show.S05E01.720p.DSNP.WEB-DL.AAC2.0.H.264-LAZY.mkv (812.7 MB)
  • The.Muppet.Show.S05E02.720p.DSNP.WEB-DL.AAC2.0.H.264-LAZY.mkv (824.7 MB)
  • The.Muppet.Show.S05E03.720p.DSNP.WEB-DL.AAC2.0.H.264-LAZY.mkv (815.5 MB)
  • The.Muppet.Show.S05E04.720p.DSNP.WEB-DL.AAC2.0.H.264-LAZY.mkv (733.7 MB)
  • The.Muppet.Show.S05E05.720p.DSNP.WEB-DL.AAC2.0.H.264-LAZY.mkv (719.3 MB)
  • The.Muppet.Show.S05E06.720p.DSNP.WEB-DL.AAC2.0.H.264-LAZY.mkv (815.7 MB)
  • The.Muppet.Show.S05E07.720p.DSNP.WEB-DL.AAC2.0.H.264-LAZY.mkv (804.3 MB)
  • The.Muppet.Show.S05E08.720p.DSNP.WEB-DL.AAC2.0.H.264-LAZY.mkv (821.1 MB)
  • The.Muppet.Show.S05E09.720p.DSNP.WEB-DL.AAC2.0.H.264-LAZY.mkv (831.0 MB)
  • The.Muppet.Show.S05E10.720p.DSNP.WEB-DL.AAC2.0.H.264-LAZY.mkv (827.2 MB)
  • The.Muppet.Show.S05E11.720p.DSNP.WEB-DL.AAC2.0.H.264-LAZY.mkv (818.2 MB)
  • The.Muppet.Show.S05E12.720p.DSNP.WEB-DL.AAC2.0.H.264-LAZY.mkv (736.6 MB)
  • The.Muppet.Show.S05E13.720p.DSNP.WEB-DL.AAC2.0.H.264-LAZY.mkv (817.4 MB)
  • The.Muppet.Show.S05E14.720p.DSNP.WEB-DL.AAC2.0.H.264-LAZY.mkv (823.7 MB)
  • The.Muppet.Show.S05E15.720p.DSNP.WEB-DL.AAC2.0.H.264-LAZY.mkv (797.9 MB)
  • The.Muppet.Show.S05E16.720p.DSNP.WEB-DL.AAC2.0.H.264-LAZY.mkv (792.6 MB)
  • The.Muppet.Show.S05E17.720p.DSNP.WEB-DL.AAC2.0.H.264-LAZY.mkv (817.8 MB)
  • The.Muppet.Show.S05E18.720p.DSNP.WEB-DL.AAC2.0.H.264-LAZY.mkv (788.0 MB)
  • The.Muppet.Show.S05E19.720p.DSNP.WEB-DL.AAC2.0.H.264-LAZY.mkv (824.4 MB)
  • The.Muppet.Show.S05E20.720p.DSNP.WEB-DL.AAC2.0.H.264-LAZY.mkv (753.7 MB)
  • The.Muppet.Show.S05E21.720p.DSNP.WEB-DL.AAC2.0.H.264-LAZY.mkv (739.2 MB)
  • The.Muppet.Show.S05E22.720p.DSNP.WEB-DL.AAC2.0.H.264-LAZY.mkv (814.1 MB)

There are currently no comments. Feel free to leave one :)

Code:

  • http://tracker.trackerfix.com:80/announce
  • udp://9.rarbg.me:2800/announce
  • udp://9.rarbg.to:2870/announce