Holiday.in.Handcuffs.2007.1080p.HULU.WEBRip.AAC2.0.x264-NYH

  • Category Movies
  • Type HD
  • Language English
  • Total size 3.8 GB
  • Uploaded By prudence25
  • Downloads 227
  • Last checked 41 minutes ago
  • Date uploaded 6 days ago
  • Seeders 24
  • Leechers 3

Holiday in Handcuffs

TV MovieComedyRomanceFamily

A ne er-do-well thirty-something attempts to appease her family by kidnapping herself an attractive boyfriend for the family Christmas. Despite unlikely odds and dysfunctional family moments, the two fall in love and share a magical Christmas.

Infohash : 9ABE44665DE1891D932DDF673C5DE0C4FDE44B81

https://www.imdb.com/title/tt0938666/





Video
ID : 1
Format : AVC
Format/Info : Advanced Video Codec
Format profile : [email protected]
Format settings : CABAC / 4 Ref Frames
Format settings, CABAC : Yes
Format settings, Reference frames : 4 frames
Codec ID : V_MPEG4/ISO/AVC
Duration : 1 h 30 min
Bit rate : 5 902 kb/s
Width : 1 920 pixels
Height : 1 080 pixels
Display aspect ratio : 16:9
Frame rate mode : Constant
Frame rate : 23.976 (24000/1001) FPS
Color space : YUV
Chroma subsampling : 4:2:0
Bit depth : 8 bits
Scan type : Progressive
Bits/(Pixel*Frame) : 0.119
Stream size : 3.72 GiB (99%)
Default : Yes
Forced : No

Audio
ID : 2
Format : AAC LC SBR
Format/Info : Advanced Audio Codec Low Complexity with Spectral Band Replication
Commercial name : HE-AAC
Format settings : Explicit
Codec ID : A_AAC-2
Duration : 1 h 30 min
Bit rate : 64.0 kb/s
Channel(s) : 2 channels
Channel layout : L R
Sampling rate : 48.0 kHz
Frame rate : 23.438 FPS (2048 SPF)
Compression mode : Lossy
Stream size : 41.3 MiB (1%)
Language : English
Default : Yes
Forced : No

Text
ID : 3
Format : UTF-8
Codec ID : S_TEXT/UTF8
Codec ID/Info : UTF-8 Plain Text
Duration : 1 h 29 min
Bit rate : 81 b/s
Count of elements : 1906
Stream size : 53.1 KiB (0%)
Title : SDH
Language : English
Default : No
Forced : No

Files:

Holiday.in.Handcuffs.2007.1080p.HULU.WEBRip.AAC2.0.x264-NYH
  • Holiday.in.Handcuffs.2007.1080p.HULU.WEB-DL.AAC2.0.H.264-NYH.mkv (3.8 GB)
  • RARBG.txt (0.0 KB)

There are currently no comments. Feel free to leave one :)

Code:

  • http://tracker.trackerfix.com:80/announce
  • udp://9.rarbg.me:2950/announce
  • udp://9.rarbg.to:2830/announce