NASA.Mars.Landing.Inside.the.Mission.2021.720p.WEBRip.X264-KOMPOS...

  • Category Documentaries
  • Type Documentary
  • Language English
  • Total size 1.0 GB
  • Uploaded By prudence25
  • Downloads 1330
  • Last checked 3 days ago
  • Date uploaded 1 week ago
  • Seeders 87
  • Leechers 7

Infohash : 6F785623F70ABDF320FE0FD2ED1BEDC488D2DFC0



Code:

Video
ID : 1
Format : AVC
Format/Info : Advanced Video Codec
Format profile : [email protected]
Format settings : CABAC / 8 Ref Frames
Format settings, CABAC : Yes
Format settings, Reference frames : 8 frames
Codec ID : V_MPEG4/ISO/AVC
Duration : 42 min 4 s
Bit rate : 3 357 kb/s
Width : 1 280 pixels
Height : 720 pixels
Display aspect ratio : 16:9
Frame rate mode : Constant
Frame rate : 23.976 (24000/1001) FPS
Color space : YUV
Chroma subsampling : 4:2:0
Bit depth : 8 bits
Scan type : Progressive
Bits/(Pixel*Frame) : 0.152
Stream size : 1 010 MiB (96%)
Writing library : x264 core 161 r3048 b86ae3c
Encoding settings : cabac=1 / ref=8 / deblock=1:-3:-3 / analyse=0x3:0x133 / me=umh / subme=9 / psy=1 / psy_rd=1.00:0.00 / mixed_ref=1 / me_range=16 / chroma_me=1 / trellis=2 / 8x8dct=1 / cqm=0 / deadzone=21,11 / fast_pskip=0 / chroma_qp_offset=-2 / threads=18 / lookahead_threads=1 / sliced_threads=0 / nr=0 / decimate=1 / interlaced=0 / bluray_compat=0 / constrained_intra=0 / bframes=3 / b_pyramid=2 / b_adapt=2 / b_bias=0 / direct=3 / weightb=1 / open_gop=0 / weightp=2 / keyint=250 / keyint_min=23 / scenecut=40 / intra_refresh=0 / rc_lookahead=60 / rc=crf / mbtree=1 / crf=18.0 / qcomp=0.60 / qpmin=0 / qpmax=69 / qpstep=4 / ip_ratio=1.40 / aq=3:0.80
Language : English
Default : Yes
Forced : No
Color range : Limited
Matrix coefficients : BT.709

Audio
ID : 2
Format : AAC LC SBR
Format/Info : Advanced Audio Codec Low Complexity with Spectral Band Replication
Commercial name : HE-AAC
Format settings : Implicit
Codec ID : A_AAC-2
Duration : 42 min 4 s
Bit rate : 127 kb/s
Channel(s) : 2 channels
Channel layout : L R
Sampling rate : 48.0 kHz
Frame rate : 23.438 FPS (2048 SPF)
Compression mode : Lossy
Stream size : 38.1 MiB (4%)
Language : English
Default : Yes
Forced : No

Text
ID : 3
Format : UTF-8
Codec ID : S_TEXT/UTF8
Codec ID/Info : UTF-8 Plain Text
Duration : 41 min 57 s
Bit rate : 93 b/s
Count of elements : 697
Stream size : 28.7 KiB (0%)
Language : English
Default : No
Forced : No

Files:

NASA.Mars.Landing.Inside.the.Mission.2021.720p.WEBRip.X264-KOMPOST[rarbg]
  • NASA.Mars.Landing.Inside.the.Mission.2021.720p.WEBRip.X264-KOMPOST.mkv (1.0 GB)
  • RARBG.txt (0.0 KB)
  • RARBG_DO_NOT_MIRROR.exe (0.1 KB)
  • nasa.mars.landing.inside.the.mission.2021.720p.webrip.x264-kompost.nfo (0.3 KB)

Comments

Code:

  • http://tracker.trackerfix.com:80/announce
  • udp://9.rarbg.me:2900/announce
  • udp://9.rarbg.to:2790/announce